(rock, blues) Becky Barksdale - Out Of The Blue - 2003, FLAC (tracks+.cue), lossless

Страницы:  1

Ответить
Автор
Сообщение

киносват

Top Seed 02* 80r

Стаж: 9 лет 7 месяцев

Сообщений: 174

киносват · 20-Окт-11 13:48 (7 лет 8 месяцев назад)

Becky Barksdale / Out Of The Blue
Жанр: rock, blues
Страна-производитель диска: USA
Год издания диска: 2003
Страна: USA
Аудиокодек: FLAC (*.flac)
Тип рипа: tracks+.cue
Битрейт аудио: lossless
Продолжительность: 00:49:41
Источник (релизер): What.CD
Наличие сканов в содержимом раздачи: да
Треклист:
1. Make My Move (3:28)
2. Bone In Your Back (5:31)
3. The Real Thing (3:26)
4. To Be Beautiful (3:44)
5. Satisfy Me (4:29)
6. Out Of The Blue (4:13)
7. Come On In And Play (4:24)
8. Bulletproof (4:36)
9. Going Home (4:13)
10. Muddy Water (3:51)
11. Hipshake (4:52)
12. Insurance (2:49)
Лог создания рипа
Exact Audio Copy V0.99 prebeta 5 from 4. May 2009
EAC extraction logfile from 18. October 2011, 13:13
Becky Barksdale / Out Of The Blue
Used drive : HL-DT-STBD-RE GBW-H20L Adapter: 0 ID: 1
Read mode : Secure
Utilize accurate stream : Yes
Defeat audio cache : Yes
Make use of C2 pointers : No
Read offset correction : 667
Overread into Lead-In and Lead-Out : No
Fill up missing offset samples with silence : Yes
Delete leading and trailing silent blocks : No
Null samples used in CRC calculations : Yes
Used interface : Native Win32 interface for Win NT & 2000
Gap handling : Appended to previous track
Used output format : User Defined Encoder
Selected bitrate : 320 kBit/s
Quality : High
Add ID3 tag : No
Command line compressor : C:\Program Files (x86)\Exact Audio Copy\Flac\flac.exe
Additional command line options : -V -8 -T "artist=%a" -T "title=%t" -T "album=%g" -T "date=%y" -T "tracknumber=%n" -T "genre=%m" %s
TOC of the extracted CD
Track | Start | Length | Start sector | End sector
---------------------------------------------------------
1 | 0:00.00 | 3:28.34 | 0 | 15633
2 | 3:28.34 | 5:31.54 | 15634 | 40512
3 | 9:00.13 | 3:26.42 | 40513 | 56004
4 | 12:26.55 | 3:44.33 | 56005 | 72837
5 | 16:11.13 | 4:29.61 | 72838 | 93073
6 | 20:40.74 | 4:13.38 | 93074 | 112086
7 | 24:54.37 | 4:24.25 | 112087 | 131911
8 | 29:18.62 | 4:36.34 | 131912 | 152645
9 | 33:55.21 | 4:13.18 | 152646 | 171638
10 | 38:08.39 | 3:51.62 | 171639 | 189025
11 | 42:00.26 | 4:52.01 | 189026 | 210926
12 | 46:52.27 | 2:49.28 | 210927 | 223629
Track 1
Filename C:\EACRips\Becky Barksdale - 2003 - Out Of The Blue\01 - Make My Move.wav
Pre-gap length 0:00:02.00
Peak level 100.0 %
Track quality 100.0 %
Test CRC 3020F2A7
Copy CRC 3020F2A7
Accurately ripped (confidence 1) [D414B21E]
Copy OK
Track 2
Filename C:\EACRips\Becky Barksdale - 2003 - Out Of The Blue\02 - Bone In Your Back.wav
Pre-gap length 0:00:02.00
Peak level 100.0 %
Track quality 99.9 %
Test CRC 426F0B43
Copy CRC 426F0B43
Accurately ripped (confidence 1) [E8F5B3ED]
Copy OK
Track 3
Filename C:\EACRips\Becky Barksdale - 2003 - Out Of The Blue\03 - The Real Thing.wav
Pre-gap length 0:00:02.00
Peak level 100.0 %
Track quality 99.9 %
Test CRC 9220CC47
Copy CRC 9220CC47
Accurately ripped (confidence 1) [DCB2482A]
Copy OK
Track 4
Filename C:\EACRips\Becky Barksdale - 2003 - Out Of The Blue\04 - To Be Beautiful.wav
Pre-gap length 0:00:02.00
Peak level 100.0 %
Track quality 99.9 %
Test CRC 9EE376AA
Copy CRC 9EE376AA
Accurately ripped (confidence 1) [F60BC744]
Copy OK
Track 5
Filename C:\EACRips\Becky Barksdale - 2003 - Out Of The Blue\05 - Satisfy Me.wav
Pre-gap length 0:00:02.00
Peak level 100.0 %
Track quality 100.0 %
Test CRC 944A1773
Copy CRC 944A1773
Accurately ripped (confidence 1) [8D680B31]
Copy OK
Track 6
Filename C:\EACRips\Becky Barksdale - 2003 - Out Of The Blue\06 - Out Of The Blue.wav
Pre-gap length 0:00:02.00
Peak level 100.0 %
Track quality 100.0 %
Test CRC A266F4BD
Copy CRC A266F4BD
Accurately ripped (confidence 1) [F87D6030]
Copy OK
Track 7
Filename C:\EACRips\Becky Barksdale - 2003 - Out Of The Blue\07 - Come On In And Play.wav
Pre-gap length 0:00:02.00
Peak level 100.0 %
Track quality 99.9 %
Test CRC 15D44615
Copy CRC 15D44615
Accurately ripped (confidence 1) [89C934E5]
Copy OK
Track 8
Filename C:\EACRips\Becky Barksdale - 2003 - Out Of The Blue\08 - Bulletproof.wav
Pre-gap length 0:00:02.00
Peak level 100.0 %
Track quality 100.0 %
Test CRC 7E818FAA
Copy CRC 7E818FAA
Accurately ripped (confidence 1) [F05B0753]
Copy OK
Track 9
Filename C:\EACRips\Becky Barksdale - 2003 - Out Of The Blue\09 - Going Home.wav
Pre-gap length 0:00:02.00
Peak level 100.0 %
Track quality 100.0 %
Test CRC 58CF01FA
Copy CRC 58CF01FA
Accurately ripped (confidence 1) [46FC59B5]
Copy OK
Track 10
Filename C:\EACRips\Becky Barksdale - 2003 - Out Of The Blue\10 - Muddy Water.wav
Pre-gap length 0:00:02.00
Peak level 100.0 %
Track quality 100.0 %
Test CRC 56F6043D
Copy CRC 56F6043D
Accurately ripped (confidence 1) [54E649FC]
Copy OK
Track 11
Filename C:\EACRips\Becky Barksdale - 2003 - Out Of The Blue\11 - Hip Shake.wav
Pre-gap length 0:00:02.00
Peak level 100.0 %
Track quality 100.0 %
Test CRC DF901BCD
Copy CRC DF901BCD
Accurately ripped (confidence 1) [DFD95711]
Copy OK
Track 12
Filename C:\EACRips\Becky Barksdale - 2003 - Out Of The Blue\12 - Insurance.wav
Pre-gap length 0:00:02.00
Peak level 97.2 %
Track quality 99.9 %
Test CRC A0DD3643
Copy CRC A0DD3643
Track not present in AccurateRip database
Copy OK
11 track(s) accurately ripped
1 track(s) not present in the AccurateRip database
Some tracks could not be verified as accurate
No errors occurred
End of status report
Содержание индексной карты (.CUE)
REM GENRE Blues
REM DATE 2003
REM DISCID 940BA50C
REM COMMENT "ExactAudioCopy v0.99pb5"
FILE "Becky Barksdale - 2003 - Out Of The Blue\01 - Make My Move.wav" WAVE
TRACK 01 AUDIO
INDEX 01 00:00:00
TRACK 02 AUDIO
INDEX 00 03:26:34
FILE "Becky Barksdale - 2003 - Out Of The Blue\02 - Bone In Your Back.wav" WAVE
INDEX 01 00:00:00
TRACK 03 AUDIO
INDEX 00 05:29:54
FILE "Becky Barksdale - 2003 - Out Of The Blue\03 - The Real Thing.wav" WAVE
INDEX 01 00:00:00
TRACK 04 AUDIO
INDEX 00 03:24:42
FILE "Becky Barksdale - 2003 - Out Of The Blue\04 - To Be Beautiful.wav" WAVE
INDEX 01 00:00:00
TRACK 05 AUDIO
INDEX 00 03:42:33
FILE "Becky Barksdale - 2003 - Out Of The Blue\05 - Satisfy Me.wav" WAVE
INDEX 01 00:00:00
TRACK 06 AUDIO
INDEX 00 04:27:61
FILE "Becky Barksdale - 2003 - Out Of The Blue\06 - Out Of The Blue.wav" WAVE
INDEX 01 00:00:00
TRACK 07 AUDIO
INDEX 00 04:11:38
FILE "Becky Barksdale - 2003 - Out Of The Blue\07 - Come On In And Play.wav" WAVE
INDEX 01 00:00:00
TRACK 08 AUDIO
INDEX 00 04:22:25
FILE "Becky Barksdale - 2003 - Out Of The Blue\08 - Bulletproof.wav" WAVE
INDEX 01 00:00:00
TRACK 09 AUDIO
INDEX 00 04:34:34
FILE "Becky Barksdale - 2003 - Out Of The Blue\09 - Going Home.wav" WAVE
INDEX 01 00:00:00
TRACK 10 AUDIO
INDEX 00 04:11:18
FILE "Becky Barksdale - 2003 - Out Of The Blue\10 - Muddy Water.wav" WAVE
INDEX 01 00:00:00
TRACK 11 AUDIO
INDEX 00 03:49:62
FILE "Becky Barksdale - 2003 - Out Of The Blue\11 - Hip Shake.wav" WAVE
INDEX 01 00:00:00
TRACK 12 AUDIO
INDEX 00 04:50:01
FILE "Becky Barksdale - 2003 - Out Of The Blue\12 - Insurance.wav" WAVE
INDEX 01 00:00:00
Download
Для скачивания .torrent файлов необходима регистрация
Сайт не распространяет и не хранит электронные версии произведений, а лишь предоставляет доступ к создаваемому пользователями каталогу ссылок на торрент-файлы, которые содержат только списки хеш-сумм
[Профиль]  [ЛС] 

рмх222

VIP (Заслуженный)

Стаж: 12 лет 5 месяцев

Сообщений: 9604

рмх222 · 21-Окт-11 09:10 (спустя 19 часов)

Кроме как, очередная девушка, и сказать нечего.
3\4 альбома мурлыканье......потом "разродилась".
киносват
Спасибо за раздачу.
Сами Вы на болванки не пишите?
[Профиль]  [ЛС] 

киносват

Top Seed 02* 80r

Стаж: 9 лет 7 месяцев

Сообщений: 174

киносват · 21-Окт-11 15:02 (спустя 5 часов)

рмх222
Пожалуйста, сам на болванки не пишу, слушаю на компьютере.
[Профиль]  [ЛС] 

рмх222

VIP (Заслуженный)

Стаж: 12 лет 5 месяцев

Сообщений: 9604

рмх222 · 24-Окт-11 15:22 (спустя 3 дня)

киносват писал(а):
сам на болванки не пишу, слушаю на компьютере.
По тексту cue-файла так и понял. Вы просто подтвердили.
[Профиль]  [ЛС] 
 
Ответить
Loading...
Error