Дикая территория (1 сезон: 12 серий из 12) / Undiscovered vistas (Rita Medynsky / Рита Медынская, Dan Hughes / Дэн Хьюз) [2015, Документальный, путешествия, флора, фауна, видовой, HDTV 1080i]

Страницы:  1

Ответить
Автор
Сообщение

kyba62

Top Bonus 07* 100TB

Стаж: 11 лет 2 месяца

Сообщений: 841

kyba62 · 01-Сен-18 13:47 (10 месяцев назад, ред. 12-Ноя-18 20:28)

Дикая территория / Undiscovered vistas
Год выпуска: 2015
Страна: США
Студия: Canada Media Fund, Blue Ant media
Жанр: Документальный, путешествия, флора, фауна, видовой
Продолжительность: 12 x ~ 00:46:19
Перевод: Профессиональный (многоголосый закадровый)
Доп. инфо о переводе: 1ТВЧ
Режиссер: Rita Medynsky / Рита Медынская, Dan Hughes / Дэн Хьюз
Описание: Во всем мире есть ряд малоизвестных, захватывающих природных условий. Познакомиться с этими областями выдающейся природной красоты, их родной дикой природы и уникальными историческими силами, которые их формируют.
imdb
Сэмпл: https://www.sendspace.com/file/rye8g7
Тип релиза: HDTV 1080i
Контейнер: MKV
Видео: 1920x1080 (16:9), 25 fps, AVC (x264), [email protected], ~10.9 Mbps, 25fps, 0.210 bit/pixel
Аудио: Русский 48.0 KHz, AC3 6 ch (Front: L C R, Side: L R, LFE) ch, ~448.00 kbps avg
MediaInfo
Complete name               : F:\Наладки\Дикая территория\01. Пустыня Атакама.mkv
Format : Matroska
Format version : Version 4 / Version 2
File size : 3.74 GiB
Duration : 46 min 19 s
Overall bit rate : 11.6 Mb/s
Encoded date : UTC 2018-09-01 06:27:28
Writing application : mkvmerge v6.6.0 ('The Edge Of The In Between') built on Dec 1 2013 17:55:00
Writing library : libebml v1.3.0 + libmatroska v1.4.1
Video
ID : 1
Format : AVC
Format/Info : Advanced Video Codec
Format profile : [email protected]
Format settings : CABAC / 4 Ref Frames
Format settings, CABAC : Yes
Format settings, ReFrames : 4 frames
Codec ID : V_MPEG4/ISO/AVC
Duration : 46 min 19 s
Bit rate : 10.9 Mb/s
Width : 1 920 pixels
Height : 1 080 pixels
Display aspect ratio : 16:9
Frame rate mode : Constant
Frame rate : 25.000 FPS
Color space : YUV
Chroma subsampling : 4:2:0
Bit depth : 8 bits
Scan type : Interlaced
Scan type, store method : Separated fields
Scan order : Top Field First
Bits/(Pixel*Frame) : 0.210
Stream size : 3.52 GiB (94%)
Default : Yes
Forced : No
Color range : Limited
Color primaries : BT.709
Transfer characteristics : BT.709
Matrix coefficients : BT.709
Audio
ID : 2
Format : AC-3
Format/Info : Audio Coding 3
Codec ID : A_AC3
Duration : 46 min 19 s
Bit rate mode : Constant
Bit rate : 448 kb/s
Channel(s) : 6 channels
Channel positions : Front: L C R, Side: L R, LFE
Sampling rate : 48.0 kHz
Frame rate : 31.250 FPS (1536 SPF)
Bit depth : 16 bits
Compression mode : Lossy
Stream size : 148 MiB (4%)
Language : Russian
Service kind : Complete Main
Default : Yes
Forced : No
Complete name : F:\Наладки\Дикая территория\02. Плато Альтиплано в Андах.mkv
Format : Matroska
Format version : Version 4 / Version 2
File size : 3.13 GiB
Duration : 46 min 19 s
Overall bit rate : 9 675 kb/s
Encoded date : UTC 2018-09-01 06:32:22
Writing application : mkvmerge v6.6.0 ('The Edge Of The In Between') built on Dec 1 2013 17:55:00
Writing library : libebml v1.3.0 + libmatroska v1.4.1
Video
ID : 1
Format : AVC
Format/Info : Advanced Video Codec
Format profile : [email protected]
Format settings : CABAC / 4 Ref Frames
Format settings, CABAC : Yes
Format settings, ReFrames : 4 frames
Codec ID : V_MPEG4/ISO/AVC
Duration : 46 min 19 s
Bit rate : 9 035 kb/s
Width : 1 920 pixels
Height : 1 080 pixels
Display aspect ratio : 16:9
Frame rate mode : Constant
Frame rate : 25.000 FPS
Color space : YUV
Chroma subsampling : 4:2:0
Bit depth : 8 bits
Scan type : Interlaced
Scan type, store method : Separated fields
Scan order : Top Field First
Bits/(Pixel*Frame) : 0.174
Stream size : 2.92 GiB (93%)
Default : Yes
Forced : No
Color range : Limited
Color primaries : BT.709
Transfer characteristics : BT.709
Matrix coefficients : BT.709
Audio
ID : 2
Format : AC-3
Format/Info : Audio Coding 3
Codec ID : A_AC3
Duration : 46 min 19 s
Bit rate mode : Constant
Bit rate : 448 kb/s
Channel(s) : 6 channels
Channel positions : Front: L C R, Side: L R, LFE
Sampling rate : 48.0 kHz
Frame rate : 31.250 FPS (1536 SPF)
Bit depth : 16 bits
Compression mode : Lossy
Stream size : 148 MiB (5%)
Language : Russian
Service kind : Complete Main
Default : Yes
Forced : No
Complete name : M:\Торренты\Документальные\Дикая территория\03. Исландия.mkv
Format : Matroska
Format version : Version 4 / Version 2
File size : 3.05 GiB
Duration : 44 min 45 s
Overall bit rate : 9 758 kb/s
Encoded date : UTC 2018-09-29 05:09:54
Writing application : mkvmerge v6.6.0 ('The Edge Of The In Between') built on Dec 1 2013 17:55:00
Writing library : libebml v1.3.0 + libmatroska v1.4.1
Video
ID : 1
Format : AVC
Format/Info : Advanced Video Codec
Format profile : [email protected]
Format settings : CABAC / 4 Ref Frames
Format settings, CABAC : Yes
Format settings, ReFrames : 4 frames
Codec ID : V_MPEG4/ISO/AVC
Duration : 44 min 45 s
Bit rate : 9 116 kb/s
Width : 1 920 pixels
Height : 1 080 pixels
Display aspect ratio : 16:9
Frame rate mode : Constant
Frame rate : 25.000 FPS
Color space : YUV
Chroma subsampling : 4:2:0
Bit depth : 8 bits
Scan type : Interlaced
Scan type, store method : Separated fields
Scan order : Top Field First
Bits/(Pixel*Frame) : 0.176
Stream size : 2.85 GiB (93%)
Default : Yes
Forced : No
Color range : Limited
Color primaries : BT.709
Transfer characteristics : BT.709
Matrix coefficients : BT.709
Audio
ID : 2
Format : AC-3
Format/Info : Audio Coding 3
Codec ID : A_AC3
Duration : 44 min 45 s
Bit rate mode : Constant
Bit rate : 448 kb/s
Channel(s) : 6 channels
Channel positions : Front: L C R, Side: L R, LFE
Sampling rate : 48.0 kHz
Frame rate : 31.250 FPS (1536 SPF)
Bit depth : 16 bits
Compression mode : Lossy
Stream size : 143 MiB (5%)
Language : Russian
Service kind : Complete Main
Default : Yes
Forced : No
Complete name : M:\Торренты\Документальные\Дикая территория\04. Ниагарский уступ.mkv
Format : Matroska
Format version : Version 4 / Version 2
File size : 3.99 GiB
Duration : 46 min 19 s
Overall bit rate : 12.3 Mb/s
Encoded date : UTC 2018-09-24 19:35:19
Writing application : mkvmerge v6.6.0 ('The Edge Of The In Between') built on Dec 1 2013 17:55:00
Writing library : libebml v1.3.0 + libmatroska v1.4.1
Video
ID : 1
Format : AVC
Format/Info : Advanced Video Codec
Format profile : [email protected]
Format settings : CABAC / 4 Ref Frames
Format settings, CABAC : Yes
Format settings, ReFrames : 4 frames
Format settings, GOP : M=1, N=32
Codec ID : V_MPEG4/ISO/AVC
Duration : 46 min 19 s
Bit rate : 11.6 Mb/s
Width : 1 920 pixels
Height : 1 080 pixels
Display aspect ratio : 16:9
Frame rate mode : Constant
Frame rate : 25.000 FPS
Color space : YUV
Chroma subsampling : 4:2:0
Bit depth : 8 bits
Scan type : Interlaced
Scan type, store method : Separated fields
Scan order : Top Field First
Bits/(Pixel*Frame) : 0.224
Stream size : 3.77 GiB (94%)
Default : Yes
Forced : No
Color range : Limited
Color primaries : BT.709
Transfer characteristics : BT.709
Matrix coefficients : BT.709
Audio
ID : 2
Format : AC-3
Format/Info : Audio Coding 3
Codec ID : A_AC3
Duration : 46 min 19 s
Bit rate mode : Constant
Bit rate : 448 kb/s
Channel(s) : 6 channels
Channel positions : Front: L C R, Side: L R, LFE
Sampling rate : 48.0 kHz
Frame rate : 31.250 FPS (1536 SPF)
Bit depth : 16 bits
Compression mode : Lossy
Stream size : 148 MiB (4%)
Language : Russian
Service kind : Complete Main
Default : Yes
Forced : No
Complete name : F:\Наладки\Дикая территория\08. Плато Колорадо.mkv
Format : Matroska
Format version : Version 4 / Version 2
File size : 3.90 GiB
Duration : 46 min 19 s
Overall bit rate : 12.1 Mb/s
Encoded date : UTC 2018-09-01 06:38:10
Writing application : mkvmerge v6.6.0 ('The Edge Of The In Between') built on Dec 1 2013 17:55:00
Writing library : libebml v1.3.0 + libmatroska v1.4.1
Video
ID : 1
Format : AVC
Format/Info : Advanced Video Codec
Format profile : [email protected]
Format settings : CABAC / 4 Ref Frames
Format settings, CABAC : Yes
Format settings, ReFrames : 4 frames
Codec ID : V_MPEG4/ISO/AVC
Duration : 46 min 19 s
Bit rate : 11.4 Mb/s
Width : 1 920 pixels
Height : 1 080 pixels
Display aspect ratio : 16:9
Frame rate mode : Constant
Frame rate : 25.000 FPS
Color space : YUV
Chroma subsampling : 4:2:0
Bit depth : 8 bits
Scan type : Interlaced
Scan type, store method : Separated fields
Scan order : Top Field First
Bits/(Pixel*Frame) : 0.219
Stream size : 3.68 GiB (94%)
Default : Yes
Forced : No
Color range : Limited
Color primaries : BT.709
Transfer characteristics : BT.709
Matrix coefficients : BT.709
Audio
ID : 2
Format : AC-3
Format/Info : Audio Coding 3
Codec ID : A_AC3
Duration : 46 min 19 s
Bit rate mode : Constant
Bit rate : 448 kb/s
Channel(s) : 6 channels
Channel positions : Front: L C R, Side: L R, LFE
Sampling rate : 48.0 kHz
Frame rate : 31.250 FPS (1536 SPF)
Bit depth : 16 bits
Compression mode : Lossy
Stream size : 148 MiB (4%)
Language : Russian
Service kind : Complete Main
Default : Yes
Forced : No
Complete name : F:\Наладки\Дикая территория\06. Багамы.mkv
Format : Matroska
Format version : Version 4 / Version 2
File size : 4.04 GiB
Duration : 46 min 19 s
Overall bit rate : 12.5 Mb/s
Encoded date : UTC 2018-09-15 05:44:35
Writing application : mkvmerge v6.6.0 ('The Edge Of The In Between') built on Dec 1 2013 17:55:00
Writing library : libebml v1.3.0 + libmatroska v1.4.1
Video
ID : 1
Format : AVC
Format/Info : Advanced Video Codec
Format profile : [email protected]
Format settings : CABAC / 4 Ref Frames
Format settings, CABAC : Yes
Format settings, ReFrames : 4 frames
Codec ID : V_MPEG4/ISO/AVC
Duration : 46 min 19 s
Bit rate : 11.8 Mb/s
Width : 1 920 pixels
Height : 1 080 pixels
Display aspect ratio : 16:9
Frame rate mode : Constant
Frame rate : 25.000 FPS
Color space : YUV
Chroma subsampling : 4:2:0
Bit depth : 8 bits
Scan type : Interlaced
Scan type, store method : Separated fields
Scan order : Top Field First
Bits/(Pixel*Frame) : 0.227
Stream size : 3.81 GiB (94%)
Default : Yes
Forced : No
Color range : Limited
Color primaries : BT.709
Transfer characteristics : BT.709
Matrix coefficients : BT.709
Audio
ID : 2
Format : AC-3
Format/Info : Audio Coding 3
Codec ID : A_AC3
Duration : 46 min 19 s
Bit rate mode : Constant
Bit rate : 448 kb/s
Channel(s) : 6 channels
Channel positions : Front: L C R, Side: L R, LFE
Sampling rate : 48.0 kHz
Frame rate : 31.250 FPS (1536 SPF)
Bit depth : 16 bits
Compression mode : Lossy
Stream size : 148 MiB (4%)
Language : Russian
Service kind : Complete Main
Default : Yes
Forced : No
Complete name : F:\Наладки\Дикая территория\07. Страна каньонов.mkv
Format : Matroska
Format version : Version 4 / Version 2
File size : 3.69 GiB
Duration : 46 min 22 s
Overall bit rate : 11.4 Mb/s
Encoded date : UTC 2018-09-08 05:27:24
Writing application : mkvmerge v6.6.0 ('The Edge Of The In Between') built on Dec 1 2013 17:55:00
Writing library : libebml v1.3.0 + libmatroska v1.4.1
Video
ID : 1
Format : AVC
Format/Info : Advanced Video Codec
Format profile : [email protected]
Format settings : CABAC / 4 Ref Frames
Format settings, CABAC : Yes
Format settings, ReFrames : 4 frames
Codec ID : V_MPEG4/ISO/AVC
Duration : 46 min 22 s
Bit rate : 10.7 Mb/s
Width : 1 920 pixels
Height : 1 080 pixels
Display aspect ratio : 16:9
Frame rate mode : Constant
Frame rate : 25.000 FPS
Color space : YUV
Chroma subsampling : 4:2:0
Bit depth : 8 bits
Scan type : Interlaced
Scan type, store method : Separated fields
Scan order : Top Field First
Bits/(Pixel*Frame) : 0.207
Stream size : 3.47 GiB (94%)
Default : Yes
Forced : No
Color range : Limited
Color primaries : BT.709
Transfer characteristics : BT.709
Matrix coefficients : BT.709
Audio
ID : 2
Format : AC-3
Format/Info : Audio Coding 3
Codec ID : A_AC3
Duration : 46 min 22 s
Bit rate mode : Constant
Bit rate : 448 kb/s
Channel(s) : 6 channels
Channel positions : Front: L C R, Side: L R, LFE
Sampling rate : 48.0 kHz
Frame rate : 31.250 FPS (1536 SPF)
Bit depth : 16 bits
Compression mode : Lossy
Stream size : 149 MiB (4%)
Language : Russian
Service kind : Complete Main
Default : Yes
Forced : No
Complete name : F:\Наладки\Дикая территория\05. Ванкувер.mkv
Format : Matroska
Format version : Version 4 / Version 2
File size : 3.21 GiB
Duration : 45 min 3 s
Overall bit rate : 10.2 Mb/s
Encoded date : UTC 2018-11-12 16:53:00
Writing application : mkvmerge v6.6.0 ('The Edge Of The In Between') built on Dec 1 2013 17:55:00
Writing library : libebml v1.3.0 + libmatroska v1.4.1
Video
ID : 1
Format : AVC
Format/Info : Advanced Video Codec
Format profile : [email protected]
Format settings : CABAC / 3 Ref Frames
Format settings, CABAC : Yes
Format settings, ReFrames : 3 frames
Codec ID : V_MPEG4/ISO/AVC
Duration : 45 min 3 s
Bit rate : 9 551 kb/s
Width : 1 920 pixels
Height : 1 080 pixels
Display aspect ratio : 16:9
Frame rate mode : Constant
Frame rate : 25.000 FPS
Color space : YUV
Chroma subsampling : 4:2:0
Bit depth : 8 bits
Scan type : Interlaced
Scan type, store method : Separated fields
Scan order : Top Field First
Bits/(Pixel*Frame) : 0.184
Stream size : 3.01 GiB (94%)
Default : Yes
Forced : No
Color range : Limited
Color primaries : BT.709
Transfer characteristics : BT.709
Matrix coefficients : BT.709
Audio
ID : 2
Format : AC-3
Format/Info : Audio Coding 3
Codec ID : A_AC3
Duration : 45 min 3 s
Bit rate mode : Constant
Bit rate : 448 kb/s
Channel(s) : 6 channels
Channel positions : Front: L C R, Side: L R, LFE
Sampling rate : 48.0 kHz
Frame rate : 31.250 FPS (1536 SPF)
Bit depth : 16 bits
Compression mode : Lossy
Stream size : 144 MiB (4%)
Language : Russian
Service kind : Complete Main
Default : Yes
Forced : No
Содержание
01. Чили Атакама
Растяжение вдоль 600 миль тихоокеанского побережья Северного Чили - это самый сухой неполярный регион на Земле: пустынная пустыня Атакама. От угрожающих вулканов до чудесных природных гейзеров, испытайте одну из последних великих диких земель Южной Америки, на которую мало кто когда-либо смотрел.
02. Боливия Альтиплано
Под пылающим боливийским солнцем лежит край крайностей, от пустынных горных плато до спящих вулканических ландшафтов. Но истинное чудо этой удивительной земли - Салар де Уюни - бесконечная соль, столь ослепительно белая, которую можно увидеть из космоса.
03. Исландия
04. Ниагарский уступ
Визуальное великолепие Ниагарского уступа только на самом деле сочетается с богатством его знаний о первых народах, усеянных эпическими сказками о героических фигурах и таинственных духовных мирах. Погрузитесь в ослепительные геологические достопримечательности этого по-настоящему исторического уголка Северной Америки.
05. Остров Ванкувер
Дикое тихоокеанское побережье острова Ванкувер - древний и прочный пейзаж у западного берега Британской Колумбии. От ледяных вершин вековых горных ледников до покрытых туманами навесов единственного в Канаде тропического леса, это самое влажное место в Северной Америке: первобытная среда обитания, где Тихий океан имеет ключ к жизни и где природа и человеческий дух сосуществуют , это рай для существ, адаптированных к жизни у моря и являющихся родиной одного из самых священных мест на Земле - прекрасного и скрытого пейзажа ...
06. Багамские о-ва
Взгляните на Багамы, как вы их раньше не видели, от высоких сосновых лесов до густых прибрежных мангровых зарослей. Однако самые сложные и неожиданные достопримечательности - это затопленные внутренние пещеры - геологические чудеса, украшенные чужими сталактитами, которые мерцают во тьме.
07. Глен Каньон
Путешествие в глубь южной части штата Юта и северной Аризоны, где возвышающиеся горные шпили уступают место широким каньонам в одном из самых величественных американских пейзажей. От Глен-Каньона до Плайя Парии изучите эти чудеса природы и древние геологические секреты, которые они проводят.
08. Юта
Пейзаж пустыни штата Юта является домом для одного из самых впечатляющих и неумолимых природных условий в мире: Национальный парк Сион. Чудеса в 100 000 квадратных миль глубоких каньонов, величественных арков и возвышающихся стен песчаника, это земля, сформированная невообразимыми геологическими силами в течение миллионов лет.
09. Исландия, 2-я часть
Озеро Верхнее - это прочное природное чудо и древнее убежище для замечательной геологической и культурной истории. Пойдите в живописные районы одного из самых важных природных регионов Северной Америки и узнайте об уникальной истории своих коренных народов.
10. Залив Фанди
11. Уэльс
12. Ирландия
Download
Для скачивания .torrent файлов необходима регистрация
Сайт не распространяет и не хранит электронные версии произведений, а лишь предоставляет доступ к создаваемому пользователями каталогу ссылок на торрент-файлы, которые содержат только списки хеш-сумм
[Профиль]  [ЛС] 

kyba62

Top Bonus 07* 100TB

Стаж: 11 лет 2 месяца

Сообщений: 841

kyba62 · 15-Сен-18 09:17 (спустя 13 дней)

Добавлены
06. Багамские о-ва
07. Глен Каньон
Желающие, обновитесь.
[Профиль]  [ЛС] 

kyba62

Top Bonus 07* 100TB

Стаж: 11 лет 2 месяца

Сообщений: 841

kyba62 · 29-Сен-18 08:21 (спустя 13 дней)

Изменение, добавлены серии
03. Исландия
04. Ниагарский уступ
[Профиль]  [ЛС] 

kyba62

Top Bonus 07* 100TB

Стаж: 11 лет 2 месяца

Сообщений: 841

kyba62 · 13-Окт-18 07:51 (спустя 13 дней)

Добавлены
09. Исландия, 2-я часть
10. Залив Фанди
[Профиль]  [ЛС] 

kyba62

Top Bonus 07* 100TB

Стаж: 11 лет 2 месяца

Сообщений: 841

kyba62 · 27-Окт-18 09:12 (спустя 14 дней, ред. 27-Окт-18 09:12)

Добавлены
11. Уэльс
12. Ирландия


[Профиль]  [ЛС] 

kyba62

Top Bonus 07* 100TB

Стаж: 11 лет 2 месяца

Сообщений: 841

kyba62 · 12-Ноя-18 20:30 (спустя 16 дней, ред. 12-Ноя-18 20:30)

Изменение, добавлена последняя серия 05. Остров Ванкувер Далее идут повторы.
Желающие, обновитесь.
[Профиль]  [ЛС] 
 
Ответить
Loading...
Error